Ver fondo
[x]

100% Aviones Mundiales [MP4|720p][Castellano][2012] general general


2013-10-30 Popularidad 841 Visitas




Sobrevuela los lugares más hermosos y extremos del planeta y conoce por dentro las aeronaves que hicieron historia en el 100% de Aviones Mundiales.


Format : MPEG-4
Format profile : Base Media / Version 2
Codec ID : mp42
File size : 589 MiB
Duration : 44mn 23s
Overall bit rate mode : Variable
Overall bit rate : 1 855 Kbps

Video
ID : 1
Format : AVC
Format/Info : Advanced Video Codec
Format profile : [email protected]
Format settings, CABAC : Yes
Format settings, ReFrames : 1 frame
Codec ID : avc1
Codec ID/Info : Advanced Video Coding
Duration : 44mn 23s
Bit rate : 1 661 Kbps
Maximum bit rate : 7 150 Kbps
Width : 1 276 pixels
Height : 720 pixels
Display aspect ratio : 16:9
Frame rate mode : Constant
Frame rate : 25.000 fps
Color space : YUV
Chroma subsampling : 4:2:0
Bit depth : 8 bits
Scan type : Progressive
Bits/(Pixel*Frame) : 0.072
Stream size : 527 MiB (90%)

Audio
ID : 2
Format : AAC
Format/Info : Advanced Audio Codec
Format profile : LC
Codec ID : 40
Duration : 44mn 23s
Bit rate mode : Variable
Bit rate : 192 Kbps
Maximum bit rate : 201 Kbps
Channel count : 2 channels
Channel positions : Front: L R
Sampling rate : 44.1 KHz
Compression mode : Lossy
Stream size : 61.0 MiB (10%)



>EN ESPAÃOL | DE ESPAÃA<

http://link-safe.net/folder/a73270c7-a9e1





http://ul.to/mfutykyz


http://rapidgator.net/file/a9134af207e08ee799accb1db2fdb403/1OOAviOn3s.rar.html


http://turbobit.net/8ulosf8wvqs5.html


http://43a650.1fichier.com/es/


Yo soy de la época en la que un disco pirata era un disco no oficial de Led Zepelin, o de los Rolling Stones, eran estos vinilos blancos, con una fotocopia...
Para mi el disco pirata fue siempre algo difícil de conseguir, un articulo de colección, una especie de joya única
-Andrés Calamaro


HAGO ESTE COMENTARIO POR UN SENCILLO MOTIVO, DESDE QUE SUBO ARCHIVOS A PUTLOCKER HAN BAJADO BASTANTE MIS GANANCIAS, COSA QUE ME DARIA IGUAL SI NO FUERA POR UNA RAZÃN, SON ESAS GANANCIAS LAS QUE MANTIENEN VIVAS MIS CUENTAS PREMIUM PARA QUE LOS DEMAS PODAIS DISFRUTAR-LAS.

De 1 a 6 que tanto te gusto?

0

De 1 a 6 que tanto te gusto?

0


Comentarios 4

Escribe un comentario


 

enviado por Nano_v2

sexo Masculino

pais 318 (Nivel 3)

pais 20 Gemas

Mas sobre el autor

Estadisticas:
Watch movie | The Changing o season 24 episode 11 | ← Anterior