Ver fondo
[x]

Arabia; una historia de las edades doradas [720p][2013] general general


2013-10-30 Popularidad 811 Visitas




La Edad de Oro del Islam, también conocida como Renacimiento islámico se data comúnmente a partir del siglo VIII hasta el siglo XIII.

Durante este periodo, ingenieros, académicos y comerciantes del mundo islámico contribuyeron enormemente en aspectos como las artes, agricultura, economía, industria, literatura, navegación, filosofía, ciencias y tecnología, preservando y mejorando el legado clásico por un lado, y añadiendo nuevas invenciones e innovaciones propias.

Los filósofos, poetas, artistas, científicos, comerciantes y artesanos musulmanes crearon una cultura única que ha influenciado a las sociedades de todos los continentes.


Format : MPEG-4
Format profile : Base Media / Version 2
Codec ID : mp42
File size : 908 MiB
Duration : 46mn 8s
Overall bit rate mode : Variable
Overall bit rate : 2 750 Kbps

Video
ID : 1
Format : AVC
Format/Info : Advanced Video Codec
Format profile : [email protected]
Format settings, CABAC : Yes
Format settings, ReFrames : 1 frame
Format settings, GOP : M=1, N=60
Codec ID : avc1
Codec ID/Info : Advanced Video Coding
Duration : 46mn 8s
Bit rate : 2 556 Kbps
Maximum bit rate : 8 108 Kbps
Width : 1 280 pixels
Height : 720 pixels
Display aspect ratio : 16:9
Frame rate mode : Constant
Frame rate : 23.976 fps
Color space : YUV
Chroma subsampling : 4:2:0
Bit depth : 8 bits
Scan type : Progressive
Bits/(Pixel*Frame) : 0.116
Stream size : 844 MiB (93%)

Audio
ID : 2
Format : AAC
Format/Info : Advanced Audio Codec
Format profile : LC
Codec ID : 40
Duration : 46mn 8s
Bit rate mode : Variable
Bit rate : 192 Kbps
Maximum bit rate : 202 Kbps
Channel count : 2 channels
Channel positions : Front: L R
Sampling rate : 44.1 KHz
Compression mode : Lossy
Stream size : 63.4 MiB (7%)



>EN ESPAÃOL | DE ESPAÃA<

http://link-safe.net/folder/a73270c7-a9e1





http://ul.to/a1l764s4
http://ul.to/hysakfhx


http://rapidgator.net/file/9fb345d98fbb386ff80c7ec7159f9e2f/Arabi3-1History3dad3sD0r.part1.rar.html
http://rapidgator.net/file/2aab7844d0246f13eafdb526f2bd803d/Arabi3-1History3dad3sD0r.part2.rar.html


http://turbobit.net/w69yxa4qaru0.html
http://turbobit.net/74uhq57asv0o.html


http://94sqrk.1fichier.com/es/
http://tm48nu.1fichier.com/es/


Yo soy de la época en la que un disco pirata era un disco no oficial de Led Zepelin, o de los Rolling Stones, eran estos vinilos blancos, con una fotocopia...
Para mi el disco pirata fue siempre algo difícil de conseguir, un articulo de colección, una especie de joya única
-Andrés Calamaro


HAGO ESTE COMENTARIO POR UN SENCILLO MOTIVO, DESDE QUE SUBO ARCHIVOS A PUTLOCKER HAN BAJADO BASTANTE MIS GANANCIAS, COSA QUE ME DARIA IGUAL SI NO FUERA POR UNA RAZÃN, SON ESAS GANANCIAS LAS QUE MANTIENEN VIVAS MIS CUENTAS PREMIUM PARA QUE LOS DEMAS PODAIS DISFRUTAR-LAS.

De 1 a 6 que tanto te gusto?

0

De 1 a 6 que tanto te gusto?

0


Comentarios 0

Escribe un comentario


 

enviado por Nano_v2

sexo Masculino

pais 318 (Nivel 3)

pais 20 Gemas

Mas sobre el autor

Estadisticas:
Childcare | Ski nautique, wakeboard | Honors Economics Economic Goals