Ver fondo
[x]

Biografia de Anthony Hopkins [MP4|720][Castellano] general general


2013-11-03 Popularidad 745 Visitas




En el cine hay actores que se te quedan grabados en la mente y uno de ellos es Anthony Hopkins, actor y maestro lo mires por donde lo mires. Sus registros son tan variados que puede pasar de ser un ser inofensivo, sensible e introvertido, a el mas violento, cruel y sádico de los asesinos.

Su rostro varia como la luz del sol, y yo me quedo con sus atardeceres, son mas cinematográficos, es donde uno puede recrearse viéndole en total plenitud, aunque en un amanecer su tierna sonrisa te revela todo un mundo de sentimientos reprimidos y llenos de amor. Yo admiro su filmografía, he visto hasta su aportación al genero de aventuras que es THOR, llena de efectos y trucos, pero la pantalla solo tiembla cuando aparece Hopkins, lo demás es simple entretenimiento.. Reconozco que mi primer film donde el apellido Hopkins se asentó en mi cerebro fué en EL SILENCIO DE LOS CORDEROS, no puedo olvidar su impacto, el guión, las imágenes, el desarrollo, el personaje que parece hecho a la medida para el lucimiento del actor. Su Hannibal Lecter es historia y lo antepongo a cualquier otro de su filmografía.



Format : MPEG-4
Format profile : Base Media / Version 2
Codec ID : mp42
File size : 506 MiB
Duration : 44mn 58s
Overall bit rate mode : Variable
Overall bit rate : 1 574 Kbps

Video
ID : 1
Format : AVC
Format/Info : Advanced Video Codec
Format profile : [email protected]
Format settings, CABAC : Yes
Format settings, ReFrames : 1 frame
Format settings, GOP : M=1, N=60
Codec ID : avc1
Codec ID/Info : Advanced Video Coding
Duration : 44mn 58s
Bit rate : 1 380 Kbps
Maximum bit rate : 3 737 Kbps
Width : 1 280 pixels
Height : 720 pixels
Display aspect ratio : 16:9
Frame rate mode : Constant
Frame rate : 25.000 fps
Color space : YUV
Chroma subsampling : 4:2:0
Bit depth : 8 bits
Scan type : Progressive
Bits/(Pixel*Frame) : 0.060
Stream size : 444 MiB (88%)

Audio
ID : 2
Format : AAC
Format/Info : Advanced Audio Codec
Format profile : LC
Codec ID : 40
Duration : 44mn 58s
Bit rate mode : Variable
Bit rate : 192 Kbps
Maximum bit rate : 201 Kbps
Channel count : 2 channels
Channel positions : Front: L R
Sampling rate : 44.1 KHz
Compression mode : Lossy
Stream size : 61.8 MiB (12%)



>EN ESPAÃOL | DE ESPAÃA<













http://ul.to/p6xb3ri3


http://rapidgator.net/file/eff8432497627f7ce70fe38c847f319e/nthoopkns.rar.html


http://turbobit.net/vo6eq12mqxmh.html


http://8s6s7p.1fichier.com/es/

Yo soy de la época en la que un disco pirata era un disco no oficial de Led Zepelin, o de los Rolling Stones, eran estos vinilos blancos, con una fotocopia...
Para mi el disco pirata fue siempre algo difícil de conseguir, un articulo de colección, una especie de joya única
-Andrés Calamaro

SI TE A GUSTADO ESTE APORTE NO DUDES EN HUSMEAR UN POCO MAS, SEGURO QUE ENCUENTRAS ALGO DE TU GUSTO


HAGO ESTE COMENTARIO POR UN SENCILLO MOTIVO, DESDE QUE SUBO ARCHIVOS A SERVIDORES FREE HAN BAJADO BASTANTE MIS GANANCIAS, COSA QUE ME DARÃA IGUAL SI NO FUERA POR UNA RAZÃN,
SON ESAS GANANCIAS LAS QUE MANTIENEN VIVAS MIS CUENTAS PREMIUM PARA QUE LOS DEMÃS PODÃIS DISFRUTAR-LAS.


De 1 a 6 que tanto te gusto?

0

De 1 a 6 que tanto te gusto?

0


Comentarios 2

Escribe un comentario


 

enviado por Nano_v2

sexo Masculino

pais 318 (Nivel 3)

pais 20 Gemas

Mas sobre el autor

Estadisticas:
Clássicos | Thám Tử Lừng Danh Conan chap 690 | Types of Communication - 1231 Words