Ver fondo
[x]

Catastrofes de la Tierra - Naturaleza Salvaje [MP4|720] general general


2013-11-03 Popularidad 1054 Visitas




Cada día, nuestro planeta hace alarde de su increíble poder de destrucción. Este documental muestra las principales catástrofes naturales de los últimos años, así como sus terribles consecuencias para el hombre.


Format : MPEG-4
Format profile : Base Media / Version 2
Codec ID : mp42
File size : 702 MiB
Duration : 45mn 2s
Overall bit rate mode : Variable
Overall bit rate : 2 179 Kbps

Video
ID : 1
Format : AVC
Format/Info : Advanced Video Codec
Format profile : [email protected]
Format settings, CABAC : Yes
Format settings, ReFrames : 1 frame
Codec ID : avc1
Codec ID/Info : Advanced Video Coding
Duration : 45mn 2s
Bit rate : 1 985 Kbps
Maximum bit rate : 6 926 Kbps
Width : 1 276 pixels
Height : 720 pixels
Display aspect ratio : 16:9
Frame rate mode : Constant
Frame rate : 25.000 fps
Color space : YUV
Chroma subsampling : 4:2:0
Bit depth : 8 bits
Scan type : Progressive
Bits/(Pixel*Frame) : 0.086
Stream size : 639 MiB (91%)

Audio
ID : 2
Format : AAC
Format/Info : Advanced Audio Codec
Format profile : LC
Codec ID : 40
Duration : 45mn 2s
Bit rate mode : Variable
Bit rate : 192 Kbps
Maximum bit rate : 202 Kbps
Channel count : 2 channels
Channel positions : Front: L R
Sampling rate : 44.1 KHz
Compression mode : Lossy
Stream size : 61.9 MiB (9%)



>EN ESPAÃOL | DE ESPAÃA<













http://ul.to/ybipy9fz
http://ul.to/4fcrkhpo
http://ul.to/g2mm38n9
http://ul.to/l4u9unkg


http://rapidgator.net/file/7e2f9c7f1c9f89368ed6f2752b4ce685/CataTierr_Natursalva.part1.rar.html
http://rapidgator.net/file/988b9b5fcda2d86d0024ff40d6a3a1cb/CataTierr_Natursalva.part2.rar.html
http://rapidgator.net/file/1313406abddc9c7b33edc6c62e68bafe/CataTierr_Natursalva.part3.rar.html
http://rapidgator.net/file/4465049e7e8733c975c3b5a9f90bba41/CataTierr_Natursalva.part4.rar.html


y8dn57.1fichier.com
a4u3gp.1fichier.com
gmy8zj.1fichier.com
cyszko.1fichier.com


Yo soy de la época en la que un disco pirata era un disco no oficial de Led Zepelin, o de los Rolling Stones, eran estos vinilos blancos, con una fotocopia...
Para mi el disco pirata fue siempre algo difícil de conseguir, un articulo de colección, una especie de joya única
-Andrés Calamaro

SI TE A GUSTADO ESTE APORTE NO DUDES EN HUSMEAR UN POCO MAS, SEGURO QUE ENCUENTRAS ALGO DE TU GUSTO


HAGO ESTE COMENTARIO POR UN SENCILLO MOTIVO, DESDE QUE SUBO ARCHIVOS A SERVIDORES FREE HAN BAJADO BASTANTE MIS GANANCIAS, COSA QUE ME DARÃA IGUAL SI NO FUERA POR UNA RAZÃN,
SON ESAS GANANCIAS LAS QUE MANTIENEN VIVAS MIS CUENTAS PREMIUM PARA QUE LOS DEMÃS PODÃIS DISFRUTAR-LAS.

De 1 a 6 que tanto te gusto?

0

De 1 a 6 que tanto te gusto?

0


Comentarios 2

  • 2013-11-03 enviado porLucyluzxd
    somos insectos ante el poder de la tierra XD
  • 2013-11-06 enviado porShoryuken_hadoken
    ni siquiera insectos, por lo menos los insectos son fundamentales para la vida, nosotros solo destruimos

Escribe un comentario


 

enviado por Nano_v2

sexo Masculino

pais 318 (Nivel 3)

pais 20 Gemas

Mas sobre el autor

Estadisticas:
Power2go 12 | Iron Man & Hulk: Heroes United | 10pc #11 Carbon Steel Surgical Scalpel Blade Graver Chisel +1pc #3 Handle ~F MEC