Ver fondo
[x]

El Apocalipsis, cuenta atras - Los cuatro jinetes [720] general general


2013-11-03 Popularidad 809 Visitas




Aunque no queramos pensar en el fin del mundo o el fin de la civilización, todos llegamos alguna vez a pensar en ello.

Está en la naturaleza humana querer saber cuándo llegará el final del mundo que conocemos. En todas las eras se ha creído que el mundo será destruído. Hay tormentas en la Tierra de proporciones sin precedentes; ninguna especie animal o vegetal vive eternamente.

Pero las profecías colisionan con los postulados y demostraciones de la ciencia moderna.


Format : MPEG-4
Format profile : Base Media / Version 2
Codec ID : mp42
File size : 624 MiB
Duration : 42mn 41s
Overall bit rate mode : Variable
Overall bit rate : 2 045 Kbps

Video
ID : 1
Format : AVC
Format/Info : Advanced Video Codec
Format profile : [email protected]
Format settings, CABAC : Yes
Format settings, ReFrames : 1 frame
Codec ID : avc1
Codec ID/Info : Advanced Video Coding
Duration : 42mn 41s
Bit rate : 1 851 Kbps
Maximum bit rate : 5 391 Kbps
Width : 1 280 pixels
Height : 720 pixels
Display aspect ratio : 16:9
Frame rate mode : Constant
Frame rate : 25.000 fps
Color space : YUV
Chroma subsampling : 4:2:0
Bit depth : 8 bits
Scan type : Progressive
Bits/(Pixel*Frame) : 0.080
Stream size : 565 MiB (90%)

Audio
ID : 2
Format : AAC
Format/Info : Advanced Audio Codec
Format profile : LC
Codec ID : 40
Duration : 42mn 41s
Bit rate mode : Variable
Bit rate : 192 Kbps
Maximum bit rate : 201 Kbps
Channel count : 2 channels
Channel positions : Front: L R
Sampling rate : 44.1 KHz
Compression mode : Lossy
Stream size : 58.6 MiB (9%)



>EN ESPAÃOL | DE ESPAÃA<













http://ul.to/oe1au12p
http://ul.to/4uazvs6g
http://ul.to/nudm35ex


http://rapidgator.net/file/6aec79285faaa382f646e4223903a747/Elpocauenttras_L4jinet3S.part1.rar.html
http://rapidgator.net/file/9d73507f4e1460a4d99dcc93d4164dc7/Elpocauenttras_L4jinet3S.part2.rar.html
http://rapidgator.net/file/ba23f6a93bfc06971caad0e9f8addb59/Elpocauenttras_L4jinet3S.part3.rar.html


http://turbobit.net/74kmkl5onmap.html
http://turbobit.net/y4yiwdob0ojk.html
http://turbobit.net/3zwedak7pp9r.html


7cqfvk.1fichier.com
ofu386.1fichier.com
0nydai.1fichier.com


Yo soy de la época en la que un disco pirata era un disco no oficial de Led Zepelin, o de los Rolling Stones, eran estos vinilos blancos, con una fotocopia...
Para mi el disco pirata fue siempre algo difícil de conseguir, un articulo de colección, una especie de joya única
-Andrés Calamaro

SI TE A GUSTADO ESTE APORTE NO DUDES EN HUSMEAR UN POCO MAS, SEGURO QUE ENCUENTRAS ALGO DE TU GUSTO


HAGO ESTE COMENTARIO POR UN SENCILLO MOTIVO, DESDE QUE SUBO ARCHIVOS A SERVIDORES FREE HAN BAJADO BASTANTE MIS GANANCIAS, COSA QUE ME DARÃA IGUAL SI NO FUERA POR UNA RAZÃN,
SON ESAS GANANCIAS LAS QUE MANTIENEN VIVAS MIS CUENTAS PREMIUM PARA QUE LOS DEMÃS PODÃIS DISFRUTAR-LAS.

De 1 a 6 que tanto te gusto?

0

De 1 a 6 que tanto te gusto?

0


Comentarios 2

  • 2013-11-03 enviado porEsesergio90
    Este me le vi hace poco,muy bueno.
  • 2013-11-03 enviado porLucyluzxd
    hay uno q me recordó esto, es el mentado reloj del fin d el mundo, no tendras ese?

Escribe un comentario


 

enviado por Nano_v2

sexo Masculino

pais 318 (Nivel 3)

pais 20 Gemas

Mas sobre el autor

Estadisticas:
Steel Angel Kurumi (36) | Best of 2018 | Das LANDWIRT Jahr in Bildern | landwirt.com | Interpersonal Communications - 2119 Words