Ver fondo
[x]

El último hombre de Custer [2013][Castellano][WebRip] general general


2013-11-20 Popularidad 1039 Visitas




La batalla de Little Big Horn es uno de los hechos más significativos de la historia de Estados Unidos.

Se trata de un relato increíble del que hasta ahora no se han conocido todos los detalles, aunque los historiadores coincidían en un punto crucial de la historia: ninguno de los hombres de Custer consiguió salir con vida de la matanza.

Sin embargo, nuevas pruebas sugieren que el soldado August Finkle consiguió sobrevivir al "Last Stand" de Custer.

Su relato de lo que realmente sucedió en Little Big Horn puede cambiar para siempre la visión que tenemos de los hechos acontecidos aquel día. ¿Realmente sobrevivió alguno de los hombres del teniente coronel Custer a la Batalla de Little Big Horn?

Format : MPEG-4
Format profile : Base Media / Version 2
Codec ID : mp42
File size : 1.14 GiB
Duration : 1h 27mn
Overall bit rate mode : Variable
Overall bit rate : 1 859 Kbps

Video
ID : 1
Format : AVC
Format/Info : Advanced Video Codec
Format profile : [email protected]
Format settings, CABAC : Yes
Format settings, ReFrames : 1 frame
Codec ID : avc1
Codec ID/Info : Advanced Video Coding
Duration : 1h 27mn
Bit rate : 1 665 Kbps
Maximum bit rate : 6 835 Kbps
Width : 1 276 pixels
Height : 720 pixels
Display aspect ratio : 16:9
Frame rate mode : Constant
Frame rate : 25.000 fps
Color space : YUV
Chroma subsampling : 4:2:0
Bit depth : 8 bits
Scan type : Progressive
Bits/(Pixel*Frame) : 0.072
Stream size : 1.02 GiB (90%)

Audio
ID : 2
Format : AAC
Format/Info : Advanced Audio Codec
Format profile : LC
Codec ID : 40
Duration : 1h 27mn
Bit rate mode : Variable
Bit rate : 192 Kbps
Maximum bit rate : 202 Kbps
Channel count : 2 channels
Channel positions : Front: L R
Sampling rate : 44.1 KHz
Compression mode : Lossy
Stream size : 120 MiB (10%)



>EN ESPAÃOL | DE ESPAÃA<


http://ul.to/d379wdxp

http://ul.to/tcs938im

http://ul.to/7pe2o2ej





http://ul.to/4305uqbu
http://ul.to/5sfnqhrn
http://ul.to/q81cglo1
http://ul.to/tvcxhqwi
http://ul.to/b59w1o6e
http://ul.to/cbo9oze4

http://mkzto4.1fichier.com/
http://dhrphn.1fichier.com/
http://ixmyqi.1fichier.com/
http://xasvor.1fichier.com/
http://5ohgwb.1fichier.com/
http://aygv69.1fichier.com/


Yo soy de la época en la que un disco pirata era un disco no oficial de Led Zepelin, o de los Rolling Stones, eran estos vinilos blancos, con una fotocopia...
Para mi el disco pirata fue siempre algo difícil de conseguir, un articulo de colección, una especie de joya única
-Andrés Calamaro

SI TE A GUSTADO ESTE APORTE NO DUDES EN HUSMEAR UN POCO MAS, SEGURO QUE ENCUENTRAS ALGO DE TU GUSTO


HAGO ESTE COMENTARIO POR UN SENCILLO MOTIVO, DESDE QUE SUBO ARCHIVOS A SERVIDORES FREE HAN BAJADO BASTANTE MIS GANANCIAS, COSA QUE ME DARÃA IGUAL SI NO FUERA POR UNA RAZÃN,
SON ESAS GANANCIAS LAS QUE MANTIENEN VIVAS MIS CUENTAS PREMIUM PARA QUE LOS DEMÃS PODÃIS DISFRUTAR-LAS.


De 1 a 6 que tanto te gusto?

0

De 1 a 6 que tanto te gusto?

0


Comentarios 1

  • 2013-11-20 enviado porEsesergio90
    No consiguieron salir con vida porque no llevaron los Gatlin gun que tenian que haber llevado en un principio.

Escribe un comentario


 

enviado por Nano_v2

sexo Masculino

pais 318 (Nivel 3)

pais 20 Gemas

Mas sobre el autor

Estadisticas:
Fancy Dress & Period Costume | GoPro HERO7 Black HD Waterproof Action Camera - Black | the handmais tale s0