Ver fondo
[x]

En busca de la Atlantida [2011][Castellano][WebRip720p] general general


2013-11-20 Popularidad 718 Visitas




Bajo el título ?En busca de la Atlántida?, el canal de televisión de National Geographic ha consultado a expertos españoles e internacionales para seguir el rastro del mítico continente perdido.

Según el investigador norteamericano Richard Freund, parte de la Atlántida podría ser el territorio del suroeste de España que hoy ocupa la provincia el coto de Doñana y habría sido destruida por un tsunami.

Format : MPEG-4
Format profile : Base Media / Version 2
Codec ID : mp42
File size : 466 MiB
Duration : 44mn 56s
Overall bit rate mode : Variable
Overall bit rate : 1 449 Kbps

Video
ID : 1
Format : AVC
Format/Info : Advanced Video Codec
Format profile : [email protected]
Format settings, CABAC : Yes
Format settings, ReFrames : 1 frame
Codec ID : avc1
Codec ID/Info : Advanced Video Coding
Duration : 44mn 56s
Bit rate : 1 255 Kbps
Maximum bit rate : 4 291 Kbps
Width : 1 280 pixels
Height : 720 pixels
Display aspect ratio : 16:9
Frame rate mode : Constant
Frame rate : 25.000 fps
Color space : YUV
Chroma subsampling : 4:2:0
Bit depth : 8 bits
Scan type : Progressive
Bits/(Pixel*Frame) : 0.054
Stream size : 403 MiB (87%)

Audio
ID : 2
Format : AAC
Format/Info : Advanced Audio Codec
Format profile : LC
Codec ID : 40
Duration : 44mn 56s
Bit rate mode : Variable
Bit rate : 192 Kbps
Maximum bit rate : 202 Kbps
Channel count : 2 channels
Channel positions : Front: L R
Sampling rate : 44.1 KHz
Compression mode : Lossy
Stream size : 61.7 MiB (13%)



>EN ESPAÃOL | DE ESPAÃA<


http://ul.to/d379wdxp

http://ul.to/tcs938im

http://ul.to/7pe2o2ej





http://ul.to/9rvp9v5a
http://ul.to/ok4isloh

http://zv26q5.1fichier.com/
http://5dp82i.1fichier.com/


Yo soy de la época en la que un disco pirata era un disco no oficial de Led Zepelin, o de los Rolling Stones, eran estos vinilos blancos, con una fotocopia...
Para mi el disco pirata fue siempre algo difícil de conseguir, un articulo de colección, una especie de joya única
-Andrés Calamaro

SI TE A GUSTADO ESTE APORTE NO DUDES EN HUSMEAR UN POCO MAS, SEGURO QUE ENCUENTRAS ALGO DE TU GUSTO


HAGO ESTE COMENTARIO POR UN SENCILLO MOTIVO, DESDE QUE SUBO ARCHIVOS A SERVIDORES FREE HAN BAJADO BASTANTE MIS GANANCIAS, COSA QUE ME DARÃA IGUAL SI NO FUERA POR UNA RAZÃN,
SON ESAS GANANCIAS LAS QUE MANTIENEN VIVAS MIS CUENTAS PREMIUM PARA QUE LOS DEMÃS PODÃIS DISFRUTAR-LAS.


De 1 a 6 que tanto te gusto?

0

De 1 a 6 que tanto te gusto?

0


Comentarios 1

Escribe un comentario


 

enviado por Nano_v2

sexo Masculino

pais 318 (Nivel 3)

pais 20 Gemas

Mas sobre el autor

Estadisticas:
Parts & Accessories | w 14 sklepach | Dan Shay