Ver fondo
[x]

En busca de Ovnis - Zona de aterrizaje [MP4|720] general general


2013-11-03 Popularidad 798 Visitas




Durante muchas décadas se han sucedido los avistamientos de objetos volantes no identificados en los cielos de la zona del amplio desierto de Roswell, en Nuevo México.


Format : MPEG-4
Format profile : Base Media / Version 2
Codec ID : mp42
File size : 606 MiB
Duration : 44mn 36s
Overall bit rate mode : Variable
Overall bit rate : 1 901 Kbps

Video
ID : 1
Format : AVC
Format/Info : Advanced Video Codec
Format profile : [email protected]
Format settings, CABAC : Yes
Format settings, ReFrames : 1 frame
Codec ID : avc1
Codec ID/Info : Advanced Video Coding
Duration : 44mn 36s
Bit rate : 1 706 Kbps
Maximum bit rate : 5 276 Kbps
Width : 1 280 pixels
Height : 720 pixels
Display aspect ratio : 16:9
Frame rate mode : Constant
Frame rate : 25.000 fps
Color space : YUV
Chroma subsampling : 4:2:0
Bit depth : 8 bits
Scan type : Progressive
Bits/(Pixel*Frame) : 0.074
Stream size : 544 MiB (90%)

Audio
ID : 2
Format : AAC
Format/Info : Advanced Audio Codec
Format profile : LC
Codec ID : 40
Duration : 44mn 36s
Bit rate mode : Variable
Bit rate : 192 Kbps
Maximum bit rate : 201 Kbps
Channel count : 2 channels
Channel positions : Front: L R
Sampling rate : 44.1 KHz
Compression mode : Lossy
Stream size : 61.3 MiB (10%)



>EN ESPAÃOL | DE ESPAÃA<













http://ul.to/uk2ckl8c
http://ul.to/rfhr2zg3
http://ul.to/ekuys3n8


http://rapidgator.net/file/06136cae8bea950f86c8dcc05337bac7/Zoneterrizje.part3.rar.html
http://rapidgator.net/file/66cd40fedd702a52e3a4a3dc4c5c75d5/Zoneterrizje.part2.rar.html
http://rapidgator.net/file/d6ff57fc20de3a91acbb1d906f22b764/Zoneterrizje.part1.rar.html


http://turbobit.net/ax2cg66dgsr1.html
http://turbobit.net/uumf4bs1rzfk.html
http://turbobit.net/tb409sakydzt.html


7ccsqh.1fichier.com
sksq8o.1fichier.com
urnbuo.1fichier.com


Yo soy de la época en la que un disco pirata era un disco no oficial de Led Zepelin, o de los Rolling Stones, eran estos vinilos blancos, con una fotocopia...
Para mi el disco pirata fue siempre algo difícil de conseguir, un articulo de colección, una especie de joya única
-Andrés Calamaro

SI TE A GUSTADO ESTE APORTE NO DUDES EN HUSMEAR UN POCO MAS, SEGURO QUE ENCUENTRAS ALGO DE TU GUSTO


HAGO ESTE COMENTARIO POR UN SENCILLO MOTIVO, DESDE QUE SUBO ARCHIVOS A SERVIDORES FREE HAN BAJADO BASTANTE MIS GANANCIAS, COSA QUE ME DARÃA IGUAL SI NO FUERA POR UNA RAZÃN,
SON ESAS GANANCIAS LAS QUE MANTIENEN VIVAS MIS CUENTAS PREMIUM PARA QUE LOS DEMÃS PODÃIS DISFRUTAR-LAS.

De 1 a 6 que tanto te gusto?

0

De 1 a 6 que tanto te gusto?

0


Comentarios 1

  • 2013-11-03 enviado porLucyluzxd
    estos cazaovnis son un fraude o.,o

Escribe un comentario


 

enviado por Nano_v2

sexo Masculino

pais 318 (Nivel 3)

pais 20 Gemas

Mas sobre el autor

Estadisticas:
You Make Me Feel So Young | Course Project Week 7 Hr/592 | Металлургия 8