Ver fondo
[x]

Fosa de las Marianas [2012][Castellano][MP4|720p] general general


2013-10-11 Popularidad 1479 Visitas




La fosa de las Marianas es la más profunda fosa oceánica conocida y el lugar más profundo de la corteza terrestre. Tiene su origen en un proceso de subducción. Se localiza en el fondo del Pacífico noroccidental, al sureste de las islas Marianas, cerca de Guam.

El conocimiento de la existencia de la fosa de las Marianas data de antes de 1870, cuando un navío intentó medir la profundidad mediante el sondeo con lastre atado a una cuerda, en esa oportunidad se sondeó una profundidad de 8 km. La fosa fue visitada en 1872 por la fragata de la Marina Real Británica Challenger, que da el nombre a la parte más profunda de la fosa, el abismo Challenger. En 1951 y usando ecolocalización, se midió una profundidad de 11.012 m en 11°19?N 142°15?E. En 1957, la nave soviética Vityaz informó de una profundidad de 10.934 m. En 1962, el M.V. Spencer F. Baird registró una profundidad de 11.022 m.
Format : MPEG-4
Format profile : Base Media / Version 2
Codec ID : mp42
File size : 742 MiB
Duration : 44mn 55s
Overall bit rate mode : Variable
Overall bit rate : 2 308 Kbps

Video
ID : 1
Format : AVC
Format/Info : Advanced Video Codec
Format profile : [email protected]
Format settings, CABAC : Yes
Format settings, ReFrames : 1 frame
Codec ID : avc1
Codec ID/Info : Advanced Video Coding
Duration : 44mn 54s
Bit rate : 2 114 Kbps
Maximum bit rate : 9 627 Kbps
Width : 1 280 pixels
Height : 720 pixels
Display aspect ratio : 16:9
Frame rate mode : Constant
Frame rate : 29.970 fps
Color space : YUV
Chroma subsampling : 4:2:0
Bit depth : 8 bits
Scan type : Progressive
Bits/(Pixel*Frame) : 0.077
Stream size : 679 MiB (92%)

Audio
ID : 2
Format : AAC
Format/Info : Advanced Audio Codec
Format profile : LC
Codec ID : 40
Duration : 44mn 55s
Bit rate mode : Variable
Bit rate : 192 Kbps
Maximum bit rate : 201 Kbps
Channel count : 2 channels
Channel positions : Front: L R
Sampling rate : 44.1 KHz
Compression mode : Lossy
Stream size : 61.7 MiB (8%)



>EN ESPAÃOL | DE ESPAÃA<

http://link-safe.net/folder/a73270c7-a9e1




http://ul.to/wftx3sw4

http://www.putlocker.com/file/D44F736FFE2EFD5C

http://rapidgator.net/file/1d45473391a09f4dba62bb8a5180d10e/FosMari.rar.html

[CODE]http://turbobit.net/ly295wjel6xm.html


Yo soy de la época en la que un disco pirata era un disco no oficial de Led Zepelin, o de los Rolling Stones, eran estos vinilos blancos, con una fotocopia...
Para mi el disco pirata fue siempre algo difícil de conseguir, un articulo de colección, una especie de joya única
-Andrés Calamaro


HAGO ESTE COMENTARIO POR UN SENCILLO MOTIVO, DESDE QUE SUBO ARCHIVOS A PUTLOCKER HAN BAJADO BASTANTE MIS GANANCIAS, COSA QUE ME DARIA IGUAL SI NO FUERA POR UNA RAZÃN,
SON ESAS GANANCIAS LAS QUE MANTIENEN VIVAS MIS CUENTAS PREMIUM PARA QUE LOS DEMAS PODAIS DISFRUTAR-LAS.


De 1 a 6 que tanto te gusto?

0

De 1 a 6 que tanto te gusto?

0


Comentarios 4

Escribe un comentario


 

enviado por Nano_v2

sexo Masculino

pais 318 (Nivel 3)

pais 20 Gemas

Mas sobre el autor

Estadisticas:
Kimisumi.E02.720p.FIX字幕侠 | Lethal Weapon | A Simple FavorComedy, Crime, Drama, Mystery, ThrillerAnna Kendrick, Blake Lively, Henry Golding, Andrew Rannells