Ver fondo
[x]

Hitler y Stalin [2013][Versión Original Germana|WebRip] general general


2013-11-20 Popularidad 804 Visitas




El pacto germano-soviético es uno de los episodios diplomáticos más vergonzosos del siglo XX. Los dos dictadores que amenazaban a Europa, Adolf Hitler y Josif Stalin, se repartieron la Europa Oriental en secreto.

La colaboración de la URSS y de los comunistas de todo el mundo con el expansionismo nazi duró casi dos años. Después de la guerra, los comunistas hicieron todo lo posible por atenuar su importancia.

Format : MPEG-4
Format profile : Base Media / Version 2
Codec ID : mp42
File size : 1.57 GiB
Duration : 1h 28mn
Overall bit rate mode : Variable
Overall bit rate : 2 559 Kbps

Video
ID : 1
Format : AVC
Format/Info : Advanced Video Codec
Format profile : [email protected]
Format settings, CABAC : Yes
Format settings, ReFrames : 1 frame
Codec ID : avc1
Codec ID/Info : Advanced Video Coding
Duration : 1h 28mn
Bit rate : 2 365 Kbps
Maximum bit rate : 7 977 Kbps
Width : 1 280 pixels
Height : 720 pixels
Display aspect ratio : 16:9
Frame rate mode : Variable
Frame rate : 23.976 fps
Minimum frame rate : 23.553 fps
Maximum frame rate : 24.291 fps
Color space : YUV
Chroma subsampling : 4:2:0
Bit depth : 8 bits
Scan type : Progressive
Bits/(Pixel*Frame) : 0.107
Stream size : 1.45 GiB (92%)

Audio
ID : 2
Format : AAC
Format/Info : Advanced Audio Codec
Format profile : LC
Codec ID : 40
Duration : 1h 28mn
Bit rate mode : Variable
Bit rate : 192 Kbps
Maximum bit rate : 204 Kbps
Channel count : 2 channels
Channel positions : Front: L R
Sampling rate : 44.1 KHz
Compression mode : Lossy
Stream size : 121 MiB (8%)



>EN ALEMAN<


http://ul.to/d379wdxp

http://ul.to/tcs938im

http://ul.to/7pe2o2ej





http://ul.to/bbdeeg57
http://ul.to/mxy0ma8d
http://ul.to/ppwmzj0n
http://ul.to/cmy80g1r
http://ul.to/8exryt0u
http://ul.to/olw1gcta
http://ul.to/vpw3igo3
http://ul.to/tysi85dw
http://ul.to/6ai6e9gw

http://0axqzk.1fichier.com/
http://6itrhp.1fichier.com/
http://bhza9r.1fichier.com/
http://wh4yzr.1fichier.com/
http://f9a0m4.1fichier.com/
http://qsocc6.1fichier.com/
http://64hpfi.1fichier.com/
http://2pte9k.1fichier.com/
http://zfczpo.1fichier.com/


Yo soy de la época en la que un disco pirata era un disco no oficial de Led Zepelin, o de los Rolling Stones, eran estos vinilos blancos, con una fotocopia...
Para mi el disco pirata fue siempre algo difícil de conseguir, un articulo de colección, una especie de joya única
-Andrés Calamaro

SI TE A GUSTADO ESTE APORTE NO DUDES EN HUSMEAR UN POCO MAS, SEGURO QUE ENCUENTRAS ALGO DE TU GUSTO


HAGO ESTE COMENTARIO POR UN SENCILLO MOTIVO, DESDE QUE SUBO ARCHIVOS A SERVIDORES FREE HAN BAJADO BASTANTE MIS GANANCIAS, COSA QUE ME DARÃA IGUAL SI NO FUERA POR UNA RAZÃN,
SON ESAS GANANCIAS LAS QUE MANTIENEN VIVAS MIS CUENTAS PREMIUM PARA QUE LOS DEMÃS PODÃIS DISFRUTAR-LAS.


De 1 a 6 que tanto te gusto?

0

De 1 a 6 que tanto te gusto?

0


Comentarios 1

Escribe un comentario


 

enviado por Nano_v2

sexo Masculino

pais 318 (Nivel 3)

pais 20 Gemas

Mas sobre el autor

Estadisticas:
s03e08 (2) | Send a private message to fatnasa | Loud Luxury