Ver fondo
[x]

Katastroika [MP4|720][V.O.S.E][2013] general general


2013-11-03 Popularidad 809 Visitas




En este documental, analizan el cambio de manos de los bienes públicos a manos privadas. Viajan alrededor del mundo reuniendo información sobre la privatización y buscan pistas el día siguiente al programa de privatización masiva en Grecia.

En más de 100 ciudades de Europa se realizaron marchas y manifestaciones el sábado 1º de junio contra la ?troika? (Comisión Europea, Banco Central Europeo y Fondo Monetario Internacional) que con la aplicación a machamartillo de su política de austeridad está profundizando hasta lo indecible la crisis y el sufrimiento de las grandes masas del pueblo en estos países.

Los síntomas más visibles de esta política (que ha merecido el certero calificativo de ?katastroika?), son el crecimiento en flecha de la desocupación, particularmente en el área juvenil, los desalojos en masa, el dramático aumento de las tasas de suicidios, la retrogradación de toda la legislación laboral y social conquistada en décadas de lucha, la pérdida de soberanía nacional frente al ?diktat? de los citados organismos supranacionales.


Format : MPEG-4
Format profile : Base Media / Version 2
Codec ID : mp42
File size : 841 MiB
Duration : 1h 27mn
Overall bit rate mode : Variable
Overall bit rate : 1 345 Kbps

Video
ID : 1
Format : AVC
Format/Info : Advanced Video Codec
Format profile : [email protected]
Format settings, CABAC : Yes
Format settings, ReFrames : 1 frame
Format settings, GOP : M=1, N=60
Codec ID : avc1
Codec ID/Info : Advanced Video Coding
Duration : 1h 27mn
Bit rate : 1 151 Kbps
Maximum bit rate : 5 872 Kbps
Width : 1 280 pixels
Height : 720 pixels
Display aspect ratio : 16:9
Frame rate mode : Constant
Frame rate : 25.000 fps
Color space : YUV
Chroma subsampling : 4:2:0
Bit depth : 8 bits
Scan type : Progressive
Bits/(Pixel*Frame) : 0.050
Stream size : 719 MiB (86%)

Audio
ID : 2
Format : AAC
Format/Info : Advanced Audio Codec
Format profile : LC
Codec ID : 40
Duration : 1h 27mn
Bit rate mode : Variable
Bit rate : 192 Kbps
Maximum bit rate : 202 Kbps
Channel count : 2 channels
Channel positions : Front: L R
Sampling rate : 44.1 KHz
Compression mode : Lossy
Stream size : 120 MiB (14%)



>EN GRIEGO<













http://ul.to/l4we5gy7
http://ul.to/yy2c0dy0
http://ul.to/xymc283j
http://ul.to/hvdivfub


http://rapidgator.net/file/3f4d686008c1ba6ae06b7a5b450ed865/CataS.part4.rar.html
http://rapidgator.net/file/6c266e62e106d49fa547dd50d8bd1b5a/CataS.part3.rar.html
http://rapidgator.net/file/41eb3e30c706db5d99d632c73308925f/CataS.part2.rar.html
http://rapidgator.net/file/15008f7b45d0c9eec736818a7ea99ec3/CataS.part1.rar.html


wv70ed.1fichier.com
qjwihk.1fichier.com
hij1tf.1fichier.com
oo4ksz.1fichier.com


Yo soy de la época en la que un disco pirata era un disco no oficial de Led Zepelin, o de los Rolling Stones, eran estos vinilos blancos, con una fotocopia...
Para mi el disco pirata fue siempre algo difícil de conseguir, un articulo de colección, una especie de joya única
-Andrés Calamaro

SI TE A GUSTADO ESTE APORTE NO DUDES EN HUSMEAR UN POCO MAS, SEGURO QUE ENCUENTRAS ALGO DE TU GUSTO


HAGO ESTE COMENTARIO POR UN SENCILLO MOTIVO, DESDE QUE SUBO ARCHIVOS A SERVIDORES FREE HAN BAJADO BASTANTE MIS GANANCIAS, COSA QUE ME DARÃA IGUAL SI NO FUERA POR UNA RAZÃN,
SON ESAS GANANCIAS LAS QUE MANTIENEN VIVAS MIS CUENTAS PREMIUM PARA QUE LOS DEMÃS PODÃIS DISFRUTAR-LAS.

De 1 a 6 que tanto te gusto?

0

De 1 a 6 que tanto te gusto?

0


Comentarios 1

  • 2013-11-03 enviado porEsesergio90
    Parece interesante,esta noche me lo vere.

Escribe un comentario


 

enviado por Nano_v2

sexo Masculino

pais 318 (Nivel 3)

pais 20 Gemas

Mas sobre el autor

Estadisticas:
Les Garçons sauvages | DiskCatalogMaker 6.8.1 | Turfmaster Gartenanhänger Geräteanhänger a. galvanisiertem Stahl Nutzlast 450 kg