Ver fondo
[x]

La historia del LSD [2011][Castellano][[email protected]] general general


2013-11-20 Popularidad 632 Visitas




Una fracción de un miligramo y todo cambia.

Una molécula que altera nuestra percepción. Una vez experimentado, nunca se puede olvidar...


Todo comenzó el 16 de abril de 1943 en Suiza. Impertérrito por el terror de la Segunda Guerra Mundial, el químico Albert Hofmann se encontraba trabajando en su laboratorio de ciencias naturales con el cornezuelo, un hongo pequeño que crece preferentemente en el centeno.

Format : MPEG-4
Format profile : Base Media / Version 2
Codec ID : mp42
File size : 808 MiB
Duration : 52mn 1s
Overall bit rate mode : Variable
Overall bit rate : 2 173 Kbps

Video
ID : 1
Format : AVC
Format/Info : Advanced Video Codec
Format profile : [email protected]
Format settings, CABAC : Yes
Format settings, ReFrames : 1 frame
Codec ID : avc1
Codec ID/Info : Advanced Video Coding
Duration : 52mn 1s
Bit rate : 1 978 Kbps
Maximum bit rate : 8 074 Kbps
Width : 1 280 pixels
Height : 720 pixels
Display aspect ratio : 16:9
Frame rate mode : Constant
Frame rate : 25.000 fps
Color space : YUV
Chroma subsampling : 4:2:0
Bit depth : 8 bits
Scan type : Progressive
Bits/(Pixel*Frame) : 0.086
Stream size : 736 MiB (91%)

Audio
ID : 2
Format : AAC
Format/Info : Advanced Audio Codec
Format profile : LC
Codec ID : 40
Duration : 52mn 1s
Bit rate mode : Variable
Bit rate : 192 Kbps
Maximum bit rate : 202 Kbps
Channel count : 2 channels
Channel positions : Front: L R
Sampling rate : 44.1 KHz
Compression mode : Lossy
Stream size : 71.4 MiB (9%)



>EN ESPAÃOL | DE ESPAÃA<


http://ul.to/d379wdxp

http://ul.to/tcs938im

http://ul.to/7pe2o2ej





http://ul.to/309u8k0x
http://ul.to/5qkq9eul
http://ul.to/o7g7jlza
http://ul.to/h9etelio

http://tvss6t.1fichier.com/
http://d457ad.1fichier.com/
http://rllupj.1fichier.com/
http://ycmp5h.1fichier.com/


Yo soy de la época en la que un disco pirata era un disco no oficial de Led Zepelin, o de los Rolling Stones, eran estos vinilos blancos, con una fotocopia...
Para mi el disco pirata fue siempre algo difícil de conseguir, un articulo de colección, una especie de joya única
-Andrés Calamaro

SI TE A GUSTADO ESTE APORTE NO DUDES EN HUSMEAR UN POCO MAS, SEGURO QUE ENCUENTRAS ALGO DE TU GUSTO


HAGO ESTE COMENTARIO POR UN SENCILLO MOTIVO, DESDE QUE SUBO ARCHIVOS A SERVIDORES FREE HAN BAJADO BASTANTE MIS GANANCIAS, COSA QUE ME DARÃA IGUAL SI NO FUERA POR UNA RAZÃN,
SON ESAS GANANCIAS LAS QUE MANTIENEN VIVAS MIS CUENTAS PREMIUM PARA QUE LOS DEMÃS PODÃIS DISFRUTAR-LAS.


De 1 a 6 que tanto te gusto?

0

De 1 a 6 que tanto te gusto?

0


Comentarios 1

  • 2013-11-20 enviado porEsesergio90
    Este me le vi hace tiempo,muy recomendable.

Escribe un comentario


 

enviado por Nano_v2

sexo Masculino

pais 318 (Nivel 3)

pais 20 Gemas

Mas sobre el autor

Estadisticas:
One Night Food Trip : Food Race | Thám Tử Lừng Danh Conan chap 833 | Gewinn oder stirb - You Win or You Die