Ver fondo
[x]

Ovnis en Europa [7/7][2012][NatGeo][Castellano][MP4|720 general general


2013-09-16 Popularidad 1116 Visitas


[CENTER]


[B]National Geographic Channel estrena su nueva serie 'Ovnis en Europa: historias ocultas', donde se contarán todos los misteriosos casos que se han dado en el continente europeo. [/B]
Normalmente se suele asociar las historias de ovnis con desiertos polvorientos del sur de los Estados Unidos, pero esta imagen no podría estar más lejos de la realidad. Los cielos europeos tienen multitud de historias sorprendentes e intrigantes que contar: objetos sin identificar que realizan maniobras aparentemente imposibles, luces extrañas que se mueven por el cielo, e incluso accidentes en los que esos objetos extraños se estrellan.

[quote][CENTER][B]Format                                   : MPEG-4
Format profile                           : Base Media / Version 2
Codec ID                                 : mp42
File size                                : 555 MiB
Duration                                 : 44mn 34s
Overall bit rate mode                    : Variable
Overall bit rate                         : 1 742 Kbps

Video
ID                                       : 1
Format                                   : AVC
Format/Info                              : Advanced Video Codec
Format profile                           : [email protected]
Format settings, CABAC                   : Yes
Format settings, ReFrames                : 1 frame
Codec ID                                 : avc1
Codec ID/Info                            : Advanced Video Coding
Duration                                 : 44mn 34s
Bit rate                                 : 1 547 Kbps
Maximum bit rate                         : 9 154 Kbps
Width                                    : 1 280 pixels
Height                                   : 720 pixels
Display aspect ratio                     : 16:9
Frame rate mode                          : Constant
Frame rate                               : 25.000 fps
Color space                              : YUV
Chroma subsampling                       : 4:2:0
Bit depth                                : 8 bits
Scan type                                : Progressive
Bits/(Pixel*Frame)                       : 0.067
Stream size                              : 493 MiB (89%)
Tagged date                              : UTC 2013-03-22 00:57:00

Audio
ID                                       : 2
Format                                   : AAC
Format/Info                              : Advanced Audio Codec
Format profile                           : LC
Codec ID                                 : 40
Duration                                 : 44mn 34s
Bit rate mode                            : Variable
Bit rate                                 : 192 Kbps
Maximum bit rate                         : 204 Kbps
Channel count                            : 2 channels
Channel positions                        : Front: L R
Sampling rate                            : 44.1 KHz
Compression mode                         : Lossy
Stream size                              : 61.2 MiB (11%)



[B]>EN ESPAÃOL | DE ESPAÃA<[/B][/B][/CENTER]
[/quote]
[URL="http://postimg.org/image/6v1a028fn/"][/URL][URL="http://postimg.org/image/ywfbdrdpv/"][/URL][URL="http://postimg.org/image/ykxv0zx9v/"][/URL][URL="http://postimg.org/image/dck6jkisz/"][/URL][URL="http://postimg.org/image/6ndn3jxgz/"][/URL][URL="http://postimg.org/image/a89ims20j/"][/URL][URL="http://postimg.org/image/yda84hmb7/"][/URL]



[CODE]http://ul.to/jn4nqlri
http://ul.to/vfskqbli
http://ul.to/jyrxjwqs
http://ul.to/5lu9mxle
http://ul.to/c5b3ulnq
http://ul.to/x9xlyksp
http://ul.to/g029srre[/CODE]

[CODE]http://www.putlocker.com/file/139753D337809490
http://www.putlocker.com/file/24E8189DB06E1FD5
http://www.putlocker.com/file/9F9A82F5B744AC2A
http://www.putlocker.com/file/56318F0265EFB48B
http://www.putlocker.com/file/FFD3A1B13B031887
http://www.putlocker.com/file/2A7B1D6868F038C6
http://www.putlocker.com/file/65B75F3D7CF7DF9F[/CODE]

[CODE]http://rapidgator.net/file/36be3981a04fda7a2849eee377c6e9e4/Oa__1_de_7_.rar.html
http://rapidgator.net/file/14cd785a920dbd4094a4f0c8d4720acc/Oa__2_de_7_.rar.html
http://rapidgator.net/file/6eebb872162b39f9577ba64e1fc01af6/Oa__3_de_7_.rar.html
http://rapidgator.net/file/5c044f7f83410ccab8919b8d1442e526/Oa__4_de_7_.rar.html
http://rapidgator.net/file/8f6a044f614de9bd0cc320ff83fae654/Oa__5_de_7_.rar.html
http://rapidgator.net/file/4fa143f5868fce14c1aceb75facb3364/Oa__6_de_7_.rar.html
http://rapidgator.net/file/616d9958d3838ed312592d8c69e9f50d/Oa__7_de_7_.rar.html[/CODE]

[CODE]http://turbobit.net/go2f7c92kels.html
http://turbobit.net/fsfseicblds6.html
http://turbobit.net/6nruwszid6z4.html
http://turbobit.net/iihg1voz4f6y.html
http://turbobit.net/5ukxyo0o2c8c.html
http://turbobit.net/bqoo36xelj9s.html
http://turbobit.net/rs1eo2iyx6je.html[/CODE]

 
[B]ââYo soy de la época en la que un disco pirata era un disco no oficial de Led Zepelin, o de los Rolling Stones, eran estos vinilos blancos, con una fotocopia...
[COLOR=Red]Para mi el disco pirata fue siempre algo difícil de conseguir, un articulo de colección, una especie de joya única[/COLOR]ââ[/B] -[I]Andrés Calamaro[/I][/CENTER]

De 1 a 6 que tanto te gusto?

0

De 1 a 6 que tanto te gusto?

0


Comentarios 7

  • 2013-09-16 enviado porLucyluzxd
    hola, BIenvenido a BI gracias x el aporte, aunq parece q salio mal el copy/paste, checate este tema http://www.buenaisla.com/tema/general-recomendaciones-en-general-20-3034 y cualquier duda para eso estamos
  • 2013-09-16 enviado porEspctro02
    buen post mmm lo descargare despues por que mi pc anda lenta, bienvenido a buenaisla espero te diviertas y as muchos post
  • 2013-09-16 enviado porTenseinara
    me gusta este tipo de cosas :3
  • 2013-09-16 enviado porEsesergio90
    Bienvenido a Buenaisla.
  • 2013-09-16 enviado porThomas
    Bienvenido a Buenaisla.
  • 2013-09-17 enviado porChente
    Bienvenido este tipo de temas me agradan con tal de que no traten de imponer su punto de vista
  • 2013-09-17 enviado porQmj025
    bienvenido compadre guarda con eso de copy :O

Escribe un comentario


 

enviado por Nano_v2

sexo Masculino

pais 318 (Nivel 3)

pais 20 Gemas

Mas sobre el autor

Estadisticas:
Women Evening Dress Convertible Multi Way Wrap Bridesmaid Formal Long Dresses $17.08 22d left | HD Girl in the Bunker | Slutever HDTV 720p AC3 5.1