Ver fondo
[x]

Secretos de EEUU - Nazis americanos [MP4|720][CAS] general general


2013-11-03 Popularidad 853 Visitas




Cerca de doscientas organizaciones neonazis operan en EE UU y estan estrechamente ligadas con otros muchos grupos que proclaman la supremacía blanca.



Format : MPEG-4
Format profile : Base Media / Version 2
Codec ID : mp42
File size : 603 MiB
Duration : 40mn 57s
Overall bit rate mode : Variable
Overall bit rate : 2 058 Kbps

Video
ID : 1
Format : AVC
Format/Info : Advanced Video Codec
Format profile : [email protected]
Format settings, CABAC : Yes
Format settings, ReFrames : 1 frame
Codec ID : avc1
Codec ID/Info : Advanced Video Coding
Duration : 40mn 57s
Bit rate : 1 863 Kbps
Maximum bit rate : 5 428 Kbps
Width : 1 280 pixels
Height : 720 pixels
Display aspect ratio : 16:9
Frame rate mode : Constant
Frame rate : 30.000 fps
Color space : YUV
Chroma subsampling : 4:2:0
Bit depth : 8 bits
Scan type : Progressive
Bits/(Pixel*Frame) : 0.067
Stream size : 546 MiB (91%)

Audio
ID : 2
Format : AAC
Format/Info : Advanced Audio Codec
Format profile : LC
Codec ID : 40
Duration : 40mn 57s
Bit rate mode : Variable
Bit rate : 192 Kbps
Maximum bit rate : 202 Kbps
Channel count : 2 channels
Channel positions : Front: L R
Sampling rate : 44.1 KHz
Compression mode : Lossy
Stream size : 56.2 MiB (9%)



>EN ESPAÃOL | DE ESPAÃA<













http://ul.to/e0b4capf
http://ul.to/gcubpvuw


http://rapidgator.net/file/99c89855b94c4422027687a332095f11/Nameric.part1.rar.html
http://rapidgator.net/file/91b0dd6fbd94628befbcaa9e42258cd6/Nameric.part2.rar.html


http://q6kc8g.1fichier.com/es/
http://v827xc.1fichier.com/es/


Yo soy de la época en la que un disco pirata era un disco no oficial de Led Zepelin, o de los Rolling Stones, eran estos vinilos blancos, con una fotocopia...
Para mi el disco pirata fue siempre algo difícil de conseguir, un articulo de colección, una especie de joya única
-Andrés Calamaro

SI TE A GUSTADO ESTE APORTE NO DUDES EN HUSMEAR UN POCO MAS, SEGURO QUE ENCUENTRAS ALGO DE TU GUSTO


HAGO ESTE COMENTARIO POR UN SENCILLO MOTIVO, DESDE QUE SUBO ARCHIVOS A SERVIDORES FREE HAN BAJADO BASTANTE MIS GANANCIAS, COSA QUE ME DARÃA IGUAL SI NO FUERA POR UNA RAZÃN,
SON ESAS GANANCIAS LAS QUE MANTIENEN VIVAS MIS CUENTAS PREMIUM PARA QUE LOS DEMÃS PODÃIS DISFRUTAR-LAS.


De 1 a 6 que tanto te gusto?

0

De 1 a 6 que tanto te gusto?

0


Comentarios 3

  • 2013-11-03 enviado porEsesergio90
    Directamente me a recordado a American History X.
  • 2013-11-03 enviado porLucyluzxd
    Las ideologías qdan en gente susceptible, lo malo es q va distorsionando con el paso d el tiempo
  • 2013-11-03 enviado porYameck
    me bajo esta (y)

Escribe un comentario


 

enviado por Nano_v2

sexo Masculino

pais 318 (Nivel 3)

pais 20 Gemas

Mas sobre el autor

Estadisticas:
Données, analyse et IA : quoi de neuf en 2019 ? | Thám Tử Lừng Danh Conan chap 781 | Gangster Land BluRay 1080p